<svg xmlns="http://www.w3.org/2000/svg" xmlns:xlink="http://www.w3.org/1999/xlink" xmlns:xodm="http://www.corel.com/coreldraw/odm/2003" width="3400" height="1100.001" version="1.1" xml:space="preserve" style="shape-rendering:geometricprecision;text-rendering:geometricprecision;fill-rule:evenodd;clip-rule:evenodd">
	<rect id="backgroundrect" width="100%" height="100%" x="0" y="0" fill="none" stroke="none" />
	<defs>
		<font id="FontID7" font-style="normal" font-variant="normal" font-weight="400" horiz-adv-x="746" style="fill-rule:nonzero">
			<font-face font-family="Prime">
				<font-face-src>
					<font-face-name name="Prime-Regular" />
				</font-face-src>
			</font-face>
			<missing-glyph>
				<path id="svg_1" d="M0 0z" />
			</missing-glyph>
			<glyph d="M219.995 671.986c6.98991,2.01173 12.991,7.024 12.991,15.0027l0 72.0131c-93.9716,0 -169.974,-76.0025 -169.974,-170.008l0 -512.002c0,-92.9828 76.0025,-170.008 169.974,-170.008l0 73.0019c0,7.024 -6.00109,13.0251 -12.991,14.0139 -36.0065,6.00109 -63.0115,37.9842 -63.0115,75.0136l0 528.983c0,36.9954 27.0049,67.9896 63.0115,73.9907l0 0z" horiz-adv-x="280" unicode="(" />
			<glyph d="M48.0087 671.986c36.0065,-6.00109 62.9774,-36.9954 62.9774,-73.9907l0 -528.983c0,-37.0295 -26.9708,-69.0125 -62.9774,-75.0136 -7.024,-0.988816 -13.0251,-6.98991 -13.0251,-14.0139l0 -73.0019c94.0057,0 170.008,77.0254 170.008,170.008l0 512.002c0,94.0057 -76.0025,170.008 -170.008,170.008l0 -72.0131c0,-7.97872 6.00109,-12.991 13.0251,-15.0027l0 0z" horiz-adv-x="274" unicode=")" />
			<glyph d="M134.002 94.0057l-73.9907 0 0 -8.01282 0 -182.999 88.0046 51.9981 0 124.011c0,8.01282 -6.00109,15.0027 -14.0139,15.0027z" horiz-adv-x="207" unicode="," />
			<glyph d="M341.994 344.995l0 73.0019 -268.992 0c-6.98991,0 -12.991,-6.00109 -12.991,-12.991l0 -73.0019 268.992 0c6.98991,0 12.991,6.00109 12.991,12.991z" horiz-adv-x="402" unicode="-" />
			<glyph d="M73.9907 0l79.003 0 0 79.003c0,8.01282 -6.00109,15.0027 -13.9798,15.0027l-79.003 0 0 -79.9918c0,-7.024 6.00109,-14.0139 13.9798,-14.0139z" horiz-adv-x="216" unicode="." />
			<glyph d="M393.003 750.989c-8.01282,0 -15.9915,-6.00109 -18.9921,-12.0022l-374.011 -738.987 82.9924 0c7.024,0 15.9915,6.00109 18.9921,12.0022l374.011 738.987 -82.9924 0z" horiz-adv-x="511" unicode="/" />
			<glyph d="M398.016 756.001l-167.008 0c-94.0057,0 -170.008,-67.0008 -170.008,-161.007l0 -448.991c0,-94.0057 76.0025,-149.993 170.008,-149.993l167.008 0c93.9716,0 170.997,67.9896 170.997,161.995l0 442.99c0,108.02 -77.0254,155.005 -170.997,155.005zm-245.022 -161.995c0,42.0076 33.9948,76.0025 76.0025,76.0025l170.997 0c8.01282,0 15.0027,-2.01173 21.9926,-4.02346l-268.992 -510.979c0,0.988816 0,1.97763 0,3.00055l0 436zm323.002 -436c0,-42.0076 -33.9948,-76.0025 -76.0025,-76.0025l-170.997 0c-8.01282,0 -16.9804,2.01173 -24.9932,3.98936l271.993 515.003c0,-2.01173 0,-5.01227 0,-6.98991l0 -436z" horiz-adv-x="634" unicode="0" />
			<glyph d="M182.01 750.989l-166.019 0 0 -71.979c0,-8.01282 6.00109,-13.0251 13.0251,-13.0251l72.9678 0 0 -652.994c0,-6.98991 6.00109,-12.991 13.0251,-12.991l79.9918 0 0 737.998c0,8.01282 -6.00109,12.991 -12.991,12.991l0 0z" horiz-adv-x="265" unicode="1" />
			<glyph d="M142.014 158.824c0,7.024 4.97818,16.0256 10.9793,18.9921l350.007 251.671c27.9937,16.844 49.9864,42.8601 49.9864,87.8342l0 74.8432c0,105.837 -76.9913,158.824 -170.997,158.824l-311 0 0 -71.979c0,-8.01282 6.00109,-13.0251 13.0251,-13.0251l297.975 0c42.0076,0 77.0254,-16.8099 77.0254,-77.8096l0 -72.8314c0,-7.024 -5.01227,-16.0256 -12.0022,-20.015l-346.017 -246.658c-27.9937,-17.0145 -49.9864,-55.8511 -49.9864,-87.8342l0 -147.845c0,-6.98991 6.00109,-12.991 12.991,-12.991l503.001 0 0 73.0019c0,6.98991 -6.00109,12.991 -12.991,12.991l-411.995 0 0 72.8314z" horiz-adv-x="637" unicode="2" />
			<glyph d="M493.01 601.337c0,93.6648 -72.0131,149.652 -166.019,149.652l-289.996 0 0 -70.9902c0,-8.01282 6.00109,-12.991 12.991,-12.991l277.005 0c42.0076,0 76.0025,-24.8568 76.0025,-66.6598l0 -154.528c0,-6.98991 -6.00109,-12.8205 -12.991,-12.8205l-331.015 0 0 -73.9907c0,-7.024 5.01227,-10.0245 13.0251,-10.0245l317.99 0c6.98991,0 12.991,-5.96699 12.991,-12.991l0 -179.999c0,-42.0076 -33.9948,-70.9902 -76.0025,-70.9902l-280.994 0c-6.98991,0 -12.991,-6.00109 -12.991,-12.991l0 -72.0131 293.985 0c94.0057,0 166.019,58.988 166.019,158.995l0 182.999c0,24.9932 -18.0033,45.997 -39.9959,47.0199 24.9932,6.00109 42.9965,33.9948 39.9959,65.8074l0 146.515z" horiz-adv-x="563" unicode="3" />
			<glyph d="M487.009 664.996c6.98991,0 12.991,6.00109 12.991,12.991l0 73.0019 -423.998 0c-6.98991,0 -12.991,-4.97818 -12.991,-12.991l0 -295.997c0,-32.0172 25.982,-57.9992 57.9992,-57.9992l243.999 0c41.9735,0 76.0025,-35.0177 76.0025,-76.9913l0 -145.015c0,-42.0076 -34.0289,-76.0025 -76.0025,-76.0025l-288.018 0c-6.98991,0 -12.991,-6.00109 -12.991,-12.991l0 -73.0019 301.009 0c92.9828,0 169.974,61.9885 169.974,161.995l0 146.004c0,103.007 -76.9913,161.995 -169.974,161.995l-203.014 0c-6.98991,0 -12.991,5.01227 -12.991,12.991l0 182.01 338.005 0z" horiz-adv-x="603" unicode="5" />
			<glyph d="M406.983 447.013l-206.969 0c-15.0027,0 -29.0166,-8.01282 -37.0295,-21.0038l0 21.0038 0 0 0 141.333c0,41.8372 34.0289,76.6503 76.0025,76.6503l279.017 0c6.98991,0 12.991,5.01227 12.991,12.991l0 73.0019 -292.008 0c-93.9716,0 -167.996,-76.9913 -167.996,-170.656l0 -422.327c0,-94.0057 74.0248,-158.006 167.996,-158.006l167.996 0c94.0057,0 164.007,69.0125 164.007,162.984l0 127.012c0,94.0057 -70.0014,157.017 -164.007,157.017zm76.0025 -285.018c0,-42.0076 -33.9948,-76.0025 -76.0025,-76.0025l-167.996 0c-41.9735,0 -76.0025,33.9948 -76.0025,76.0025l0 186c0,6.98991 6.00109,12.991 13.0251,12.991l230.974 0c42.0076,0 76.0025,-33.9948 76.0025,-76.0025l0 -122.988z" horiz-adv-x="642" unicode="6" />
			<glyph d="M578.014 515.003l0 73.0019c0,94.0057 -73.0019,167.996 -167.008,167.996l-181.022 0c-93.9716,0 -166.974,-76.9913 -166.974,-170.997l0 -70.0014c0,-51.0093 22.9815,-96.0175 58.988,-128.001 -36.0065,-30.9943 -58.988,-76.0025 -58.988,-127.012l0 -98.9839c0,-94.0057 73.0019,-164.996 166.974,-164.996l181.022 0c94.0057,0 167.008,70.9902 167.008,164.996l0 98.9839c0,51.0093 -23.0155,96.0175 -59.0221,127.012 36.0065,31.9831 59.0221,76.9913 59.0221,128.001zm-423.998 79.003c0,42.0076 33.9948,79.9918 75.9684,79.9918l181.022 0c42.0076,0 76.0025,-37.9842 76.0025,-79.9918l0 -87.0158c0,-41.9735 -33.9948,-76.0025 -76.0025,-76.0025l-181.022 0c-41.9735,0 -75.9684,34.0289 -75.9684,76.0025l0 87.0158zm332.992 -436c0,-42.0076 -33.9948,-76.9913 -76.0025,-76.9913l-181.022 0c-41.9735,0 -75.9684,34.9836 -75.9684,76.9913l0 109.997c0,42.0076 33.9948,76.0025 75.9684,76.0025l181.022 0c42.0076,0 76.0025,-33.9948 76.0025,-76.0025l0 -109.997z" horiz-adv-x="649" unicode="8" />
			<glyph d="M231.008 304.999l207.004 0c15.0027,0 28.9825,8.01282 36.9954,21.0038l0 -21.0038 0 0 0 -142.014c0,-41.9735 -33.9948,-76.9913 -76.0025,-76.9913l-298.998 0c-6.98991,0 -12.991,-4.97818 -12.991,-12.991l0 -73.0019 311.989 0c94.0057,0 167.996,76.9913 167.996,170.997l0 422.327c0,93.6648 -73.9907,157.665 -167.996,157.665l-167.996 0c-94.0057,0 -164.007,-68.9785 -164.007,-162.643l0 -126.671c0,-93.6648 70.0014,-156.676 164.007,-156.676zm-76.0025 284.336c0,41.8372 33.9948,75.6615 76.0025,75.6615l167.996 0c42.0076,0 76.0025,-33.8243 76.0025,-75.6615l0 -185.488c0,-6.85352 -6.00109,-12.8546 -12.991,-12.8546l-231.008 0c-42.0076,0 -76.0025,33.8584 -76.0025,75.6615l0 122.681z" horiz-adv-x="646" unicode="9" />
			<glyph d="M60.9997 0l79.003 0 0 79.003c0,8.01282 -6.00109,15.0027 -14.0139,15.0027l-79.003 0 0 -79.9918c0,-7.024 6.00109,-14.0139 14.0139,-14.0139zm0 335.993l79.003 0 0 79.003c0,8.01282 -6.00109,14.0139 -14.0139,14.0139l-79.003 0 0 -79.003c0,-8.01282 6.00109,-14.0139 14.0139,-14.0139z" horiz-adv-x="185" unicode=":" />
			<glyph d="M466.994 743.999c-1.97763,3.98936 -6.98991,6.98991 -12.0022,6.98991l-118.999 0c-36.0065,0 -67.0008,-22.9815 -79.003,-55.9875l-243.999 -695.001 82.0035 0c8.01282,0 15.9915,6.00109 18.0033,12.991l67.0008 193.024 381.99 0 67.0008 -193.024c2.01173,-6.98991 9.00164,-12.991 18.0033,-12.991l82.0035 0 -262.002 743.999zm-256.99 -451.991l125 359.997c3.00055,7.97872 9.99045,12.991 18.0033,12.991l48.9975 0 129.978 -372.988 -321.979 0z" horiz-adv-x="746" unicode="A" />
			<glyph d="M121.011 0l317.99 0c94.0057,0 170.008,76.9913 170.008,170.997l0 88.0046c0,48.0087 -38.0183,109.008 -91.994,122.988 53.9757,11.0134 91.994,75.0136 91.994,123.022l0 76.0025c0,93.9716 -76.0025,169.974 -170.008,169.974l-304.01 0 -15.9915 0c-30.9943,0 -55.9875,-24.9932 -55.9875,-55.9875l0 -637.002c0,-31.9831 25.982,-57.9992 57.9992,-57.9992zm393.992 162.984c0,-41.9735 -33.9948,-76.9913 -76.0025,-76.9913l-262.991 0c-11.0134,0 -19.0262,9.00164 -19.0262,18.9921l0 234.008 282.017 0c42.0076,0 76.0025,-33.9948 76.0025,-76.0025l0 -100.007zm-358.02 483.02c0,10.9793 8.01282,18.9921 19.0262,18.9921l262.991 0c42.0076,0 76.0025,-33.9948 76.0025,-76.0025l0 -88.0046c0,-41.9735 -33.9948,-76.0025 -76.0025,-76.0025l-282.017 0 0 221.017z" horiz-adv-x="661" unicode="B" />
			<glyph d="M60.0109 170.008c0,-93.0169 76.0025,-170.008 169.974,-170.008l330.026 0 0 73.0019c0,6.98991 -6.00109,12.991 -13.0251,12.991l-317.001 0c-41.9735,0 -75.9684,33.9948 -75.9684,76.0025l0 426.998c0,42.0076 33.9948,76.0025 75.9684,76.0025l317.001 0c7.024,0 13.0251,6.00109 13.0251,12.991l0 73.0019 -330.026 0c-93.9716,0 -169.974,-76.0025 -169.974,-169.974l0 -411.007z" horiz-adv-x="609" unicode="C" />
			<glyph d="M229.985 664.996l324.025 0c6.98991,0 12.991,6.00109 12.991,12.991l0 73.0019 -337.016 0c-93.9716,0 -169.974,-76.0025 -169.974,-169.974l0 -411.007c0,-94.0057 76.0025,-170.008 169.974,-170.008l337.016 0 0 73.0019c0,6.98991 -6.00109,12.991 -12.991,12.991l-324.025 0c-41.9735,0 -75.9684,33.9948 -75.9684,76.0025l0 170.997 364.975 0c7.024,0 12.991,6.00109 12.991,12.991l0 73.0019 -328.969 0c-21.0038,0 -39.0071,-7.97872 -48.9975,-19.9809l0 189.989c0,42.0076 33.9948,76.0025 75.9684,76.0025z" horiz-adv-x="598" unicode="E" />
			<glyph d="M430.987 750.989l-312.977 0c-32.0172,0 -57.9992,-25.982 -57.9992,-57.9992l0 -692.99 80.9806 0c7.024,0 13.0251,6.00109 13.0251,12.991l0 338.993c1.97763,-21.9926 26.9708,-39.9959 57.9992,-39.9959l218.972 0c94.0057,0 170.008,77.0254 170.008,170.008l0 99.018c0,92.9828 -76.0025,169.974 -170.008,169.974zm76.0025 -277.005c0,-41.9735 -33.9948,-75.9684 -76.0025,-75.9684l-256.99 0c-0.988816,0 -0.988816,0 -0.988816,0 -10.0245,0 -18.9921,8.96754 -18.9921,18.9921l0 228.996c0,9.99045 7.97872,18.9921 18.9921,18.9921l257.979 0c42.0076,0 76.0025,-33.9948 76.0025,-76.0025l0 -115.01z" horiz-adv-x="631" unicode="P" />
			<glyph d="M155.994 359.997c6.98991,-18.9921 27.9937,-27.0049 56.0215,-27.0049l28.9825 0 128.001 0 152.005 -320.99c3.00055,-6.00109 10.9793,-12.0022 18.0033,-12.0022l86.9817 0 -159.984 338.005c73.0019,18.9921 135.979,67.0008 135.979,155.005l0 97.0063c0,101.984 -75.9684,160.972 -169.974,160.972l-314 0c-32.0172,0 -57.9992,-25.982 -57.9992,-57.9992l0 -692.99 80.9806 0c7.024,0 13.0251,6.00109 13.0251,12.991l0 347.006 1.97763 0zm17.0145 58.988c-10.0245,0 -18.9921,8.01282 -18.9921,19.0262 0,0 0,207.992 0,207.992 0,9.99045 7.97872,18.9921 18.9921,18.9921l259.002 0c41.9735,0 76.0025,-33.9948 76.0025,-76.0025l0 -94.0057c0,-41.9735 -34.0289,-76.0025 -76.0025,-76.0025 0,0 -259.002,0 -259.002,0z" horiz-adv-x="646" unicode="R" />
			<glyph d="M30.9943 750.989c-6.98991,0 -12.991,-6.00109 -12.991,-12.991l0 -73.0019 223.984 0 0 -664.996 81.0147 0c8.01282,0 12.991,6.00109 12.991,12.991l0 652.005 213.993 0c7.024,0 13.0251,6.00109 13.0251,12.991l0 73.0019 -532.017 0z" horiz-adv-x="579" unicode="T" />
			<glyph d="M307.01 500.989l-210.004 0 0 -70.9902c0,-6.00109 4.97818,-11.0134 10.9793,-11.0134l199.025 0c38.973,0 59.9768,-27.3118 59.9768,-59.6358l0 -25.3342c0,-6.00109 -4.97818,-11.0134 -10.9793,-11.0134l-169.019 0c-80.9806,0 -146.004,-64.9891 -146.004,-146.004l0 -30.9943c0,-81.0147 65.0232,-146.004 146.004,-146.004l179.01 0 43.9853 0 11.0134 0c18.0033,0 32.0172,14.0139 32.0172,31.9831l0 328.355c0,91.653 -65.0232,140.651 -146.004,140.651zm-179.01 -356.997l0 36.9954c0,33.006 26.0161,59.0221 58.988,59.0221l154.017 0c10.9793,0.988816 21.0038,6.00109 25.982,15.0027l0 -159.029c0,-5.96699 -3.98936,-10.9793 -9.99045,-10.9793l-170.008 0c-32.9719,0 -58.988,25.982 -58.988,58.988z" horiz-adv-x="512" unicode="a" />
			<glyph d="M51.9981 354.849l0 -208.674c0,-81.1852 64.9891,-146.174 146.004,-146.174l237.998 0c18.0033,0 32.0172,14.0139 32.0172,31.9831l0 719.006 -76.0025 0c-6.00109,0 -11.0134,-4.97818 -11.0134,-10.9793l0 -271.004c-12.0022,16.9804 -36.9954,31.9831 -69.0125,31.9831l-115.998 0c-80.9806,0 -143.992,-64.9891 -143.992,-146.14zm87.0158 3.98936c0,33.1765 25.982,59.1585 58.988,59.1585l134.99 0c24.9932,-3.00055 45.997,-24.0044 48.0087,-51.1798l0 -273.8c0,-6.00109 -5.01227,-10.0245 -11.0134,-10.0245l-171.986 0c-33.006,0 -58.988,26.0161 -58.988,59.1585l0 216.687z" horiz-adv-x="529" unicode="d" />
			<glyph d="M206.015 0l259.002 0 0 72.0131c0,6.00109 -5.01227,10.9793 -11.0134,10.9793l-247.988 0c-33.006,0 -59.0221,26.0161 -59.0221,59.0221l0 88.9935c9.00164,-12.0022 23.0155,-18.9921 39.0071,-18.9921l274.004 0c24.0044,0 25.982,13.9798 25.982,30.9943l0 115.487c0,93.4943 -64.9891,142.492 -145.97,142.492l-134.002 0c-81.0147,0 -146.004,-48.9975 -146.004,-142.492l0 -212.493c0,-81.0147 64.9891,-146.004 146.004,-146.004zm137.002 418.985c38.973,0 57.9992,-19.1626 57.9992,-59.4995l0 -54.4872c0,-6.00109 -5.01227,-11.0134 -11.0134,-11.0134l-233.02 0c-5.96699,1.02291 -9.99045,5.01227 -9.99045,11.0134l0 54.4872c0,40.3369 26.0161,59.4995 59.0221,59.4995l137.002 0z" horiz-adv-x="548" unicode="e" />
			<glyph d="M206.015 753.001c-81.0147,0 -146.004,-64.9891 -146.004,-146.004l0 -606.997 76.0025 0c6.00109,0 10.9793,5.01227 10.9793,11.0134l0 403.983 114.021 0c6.00109,0 10.9793,3.98936 10.9793,9.99045l0 72.0131 -97.9951 0c-12.0022,0 -21.9926,-6.00109 -27.0049,-15.0027l0 128.989c0,33.006 26.0161,59.0221 59.0221,59.0221l89.9823 0c6.00109,0 11.0134,4.97818 11.0134,10.9793l0 72.0131 -100.996 0 0 0z" horiz-adv-x="320" unicode="f" />
			<glyph d="M384.002 -101.984c0,-33.006 -27.0049,-59.0221 -58.988,-59.0221l-227.019 0c-6.00109,0 -10.9793,-4.97818 -10.9793,-10.9793l0 -72.0131 237.998 0c79.9918,0 145.97,64.9891 145.97,146.004l0 567.001c0,16.9804 -13.9798,31.9831 -31.9831,31.9831l-237.998 0c-94.9945,0 -146.004,-61.9885 -146.004,-141.98l0 -213.005c0,-79.9918 46.9858,-146.004 140.003,-146.004l119.988 0c32.0172,0 59.0221,21.9926 69.0125,39.9959l0 -141.98zm-241.987 460.993c0,31.9831 12.991,58.988 58.988,58.988l171.986 0c6.00109,0 11.0134,-5.01227 11.0134,-11.0134l0 -272.981c-2.01173,-26.0161 -23.0155,-46.9858 -48.9975,-51.0093l-137.991 0c-42.0076,0 -54.9986,27.0049 -54.9986,59.0221l0 216.994z" horiz-adv-x="530" unicode="g" />
			<glyph d="M136.013 750.989l-76.0025 0 0 -739.975c0,-6.00109 4.97818,-11.0134 10.9793,-11.0134l76.0025 0 0 740.01c0,6.00109 -4.97818,10.9793 -10.9793,10.9793z" horiz-adv-x="212" unicode="l" />
			<glyph d="M520.015 500.989l-393.003 0c-36.0065,0 -65.0232,-28.9825 -65.0232,-64.9891l0 -436 76.0025 0c6.00109,0 11.0134,5.01227 11.0134,11.1498l0 398.834c0.988816,5.01227 5.01227,9.00164 9.99045,9.00164l151.016 0c6.00109,0 10.9793,-4.97818 10.9793,-10.9793l0 -396.856c0,-6.13748 5.01227,-11.1498 11.0134,-11.1498l76.0025 0 0 390.992c0,12.0022 -8.01282,21.9926 -18.0033,27.9937l130.012 0c32.9719,0 58.988,-26.9708 58.988,-58.988l0 -348.848c0,-6.13748 5.01227,-11.1498 11.0134,-11.1498l75.9684 0 0 354.849c0,81.1511 -64.9891,146.14 -145.97,146.14z" horiz-adv-x="725" unicode="m" />
			<glyph d="M338.993 500.989l-213.993 0c-36.0065,0 -64.9891,-28.9825 -64.9891,-64.9891l0 -436 76.0025 0c6.00109,0 10.9793,5.01227 10.9793,11.1498l0 396.856c0,6.00109 5.01227,10.9793 11.0134,10.9793l180.987 0c33.006,0 59.0221,-26.9708 59.0221,-58.988l0 -348.848c0,-6.13748 4.97818,-11.1498 10.9793,-11.1498l76.0025 0 0 354.849c0,81.1511 -64.9891,146.14 -146.004,146.14z" horiz-adv-x="548" unicode="n" />
			<glyph d="M335.993 -6.98991c81.0147,0 146.993,64.9891 146.993,146.004l0 221.972c0,80.0259 -65.9779,146.004 -146.993,146.004l-131.99 0c-81.0147,0 -146.004,-65.9779 -146.004,-146.004l0 -221.972c0,-81.0147 64.9891,-146.004 146.004,-146.004l131.99 0zm-131.99 430.987l131.99 0c33.006,0 60.0109,-27.0049 60.0109,-58.988l0 -230.019c0,-33.006 -27.0049,-59.9768 -60.0109,-59.9768l-131.99 0c-33.006,0 -58.988,26.9708 -58.988,59.9768l0 230.019c0,31.9831 25.982,58.988 58.988,58.988z" horiz-adv-x="543" unicode="o" />
			<glyph d="M215.016 500.989c-31.0284,0 -56.0215,-15.0027 -68.0237,-31.9831l0 21.9926c0,6.00109 -4.97818,9.99045 -10.9793,9.99045l-76.0025 0 0 -489.839c0,-6.13748 4.97818,-11.1498 10.9793,-11.1498l76.0025 0 0 372.988c2.01173,24.0044 21.0038,45.0082 48.0087,45.0082l125 0c6.00109,0 11.0134,5.01227 11.0134,11.0134l0 71.979 -115.998 0z" horiz-adv-x="362" unicode="r" />
			<glyph d="M73.9907 268.515l314 -77.1959c5.01227,-0.988816 9.00164,-4.97818 9.00164,-9.99045l0 -47.1563c0,-33.1765 -28.9825,-52.1686 -61.9885,-52.1686l-271.993 0c-6.00109,0 -11.0134,-5.01227 -11.0134,-11.0134l0 -70.9902 283.006 0c80.9806,0 143.003,46.9858 143.003,134.172l0 89.1639c0,16.162 -11.0134,30.1759 -27.0049,33.1765l-308.988 73.3088c-5.01227,2.01173 -9.00164,6.00109 -9.00164,11.0134l0 28.9825c0,33.1765 16.9804,49.168 49.9864,49.168l262.991 0c6.00109,0 11.0134,5.01227 11.0134,11.0134l0 70.9902 -274.004 0c-81.0147,0 -137.002,-50.9752 -137.002,-132.16l0 -67.1713c0,-15.9915 12.0022,-30.1418 27.9937,-33.1424z" horiz-adv-x="539" unicode="s" />
			<glyph d="M296.986 82.9924l-89.9823 0c-33.006,0 -58.988,26.0161 -58.988,59.0221l0 274.993 123.977 0c6.00109,0 11.0134,3.98936 11.0134,9.99045l0 72.0131 -106.008 0c-12.991,0 -24.0044,-7.024 -28.9825,-18.0033l0 250c0,6.00109 -5.01227,10.9793 -11.0134,10.9793l-76.0025 0 0 -595.983c0,-81.0147 66.012,-146.004 146.004,-146.004l100.996 0 0 72.0131c0,6.00109 -5.01227,10.9793 -11.0134,10.9793l0 0z" horiz-adv-x="338" unicode="t" />
			<glyph d="M60.9997 500.989l0 -354.985c0,-81.0147 64.9891,-146.004 146.004,-146.004l131.99 0c81.0147,0 146.993,64.9891 146.993,146.004l0 354.985 -76.0025 0c-5.96699,0 -10.9793,-4.97818 -10.9793,-10.9793l0 -347.995c0,-33.006 -27.0049,-59.0221 -60.0109,-59.0221l-131.99 0c-33.006,0 -58.988,26.0161 -58.988,59.0221l0 347.995c0,6.00109 -5.01227,10.9793 -11.0134,10.9793l-76.0025 0z" horiz-adv-x="546" unicode="u" />
			<glyph d="M88.9935 -94.0057l81.0147 0 0 858.02c0,9.00164 -5.01227,12.991 -13.0251,12.991l-80.9806 0 0 -858.02c0,-7.97872 3.98936,-12.991 12.991,-12.991z" horiz-adv-x="237" unicode="|" />
			<glyph d="M206.015 0l259.002 0 0 72.0131c0,6.00109 -5.01227,10.9793 -11.0134,10.9793l-247.988 0c-33.006,0 -59.0221,26.0161 -59.0221,59.0221l0 88.9935c9.00164,-12.0022 23.0155,-18.9921 39.0071,-18.9921l274.004 0c24.0044,0 25.982,13.9798 25.982,30.9943l0 115.487c0,93.4943 -64.9891,142.492 -145.97,142.492l-134.002 0c-81.0147,0 -146.004,-48.9975 -146.004,-142.492l0 -212.493c0,-81.0147 64.9891,-146.004 146.004,-146.004zm137.002 418.985c38.973,0 57.9992,-19.1626 57.9992,-59.4995l0 -54.4872c0,-6.00109 -5.01227,-11.0134 -11.0134,-11.0134l-233.02 0c-5.96699,1.02291 -9.99045,5.01227 -9.99045,11.0134l0 54.4872c0,40.3369 26.0161,59.4995 59.0221,59.4995l137.002 0zm-26.0161 198.002l42.0076 102.019 -71.0243 0c-6.98991,0 -13.9798,-5.01227 -16.9804,-12.0022l-42.9965 -100.996 70.9902 0c6.98991,0 15.0027,4.97818 18.0033,10.9793z" horiz-adv-x="548" unicode="é" />
		</font>
		<font id="FontID5" font-style="normal" font-variant="normal" font-weight="400" horiz-adv-x="667" style="fill-rule:nonzero">
			<font-face font-family="Arial">
				<font-face-src>
					<font-face-name name="Arial" />
				</font-face-src>
			</font-face>
			<missing-glyph>
				<path id="svg_2" d="M0 0z" />
			</missing-glyph>
			<glyph d="M66.0079 0l0 518.992 79.007 0 0 -73.6616c37.9849,56.4915 92.9781,84.6764 164.817,84.6764 31.3436,0 60.0146,-5.66939 86.1748,-16.8462 26.1602,-11.1768 45.8411,-25.9982 58.8402,-44.1808 12.9991,-18.1421 22.1511,-39.8072 27.3346,-64.8336 3.15866,-16.3198 4.81898,-44.8287 4.81898,-85.4864l0 -318.66 -87.9971 0 0 315.34c0,35.8387 -3.32064,62.6468 -10.1644,80.3434 -6.84377,17.6561 -18.9925,31.8296 -36.3246,42.48 -17.3321,10.4884 -37.8634,15.8338 -61.189,15.8338 -37.337,0 -69.4906,-11.8247 -96.6632,-35.6767 -27.1726,-23.6495 -40.6576,-68.8021 -40.6576,-135.134l0 -283.186 -87.9971 0z" horiz-adv-x="556" unicode="n" />
			<glyph d="M33.004 259.496c0,95.8532 26.6461,166.842 80.1814,213.007 44.4642,38.3494 98.9714,57.5038 163.157,57.5038 71.1509,0 129.505,-23.3255 174.82,-70.017 45.1527,-46.489 67.8302,-110.999 67.8302,-193.164 0,-66.6559 -10.0024,-118.976 -30.0073,-157.164 -20.0049,-38.1469 -49.1617,-67.8302 -87.4706,-89.0095 -38.1874,-21.1387 -80.0194,-31.6676 -125.172,-31.6676 -72.6897,0 -131.327,23.1635 -176.156,69.693 -44.8692,46.489 -67.1823,113.469 -67.1823,200.818zm89.9814 -0.161983c0,-66.3319 14.4974,-116.02 43.5328,-148.822 29.1569,-33.004 65.6435,-49.5262 109.824,-49.5262 43.6543,0 79.9789,16.5222 109.176,49.6882 28.9949,33.166 43.4923,83.664 43.4923,151.494 0,63.9832 -14.6594,112.497 -43.8568,145.339 -29.1569,33.004 -65.4815,49.4857 -108.812,49.4857 -44.1808,0 -80.6674,-16.3198 -109.824,-49.1617 -29.0354,-32.842 -43.5328,-82.3277 -43.5328,-148.498z" horiz-adv-x="556" unicode="o" />
		</font>
		<font id="FontID3" font-style="italic" font-variant="normal" font-weight="400" horiz-adv-x="669" style="fill-rule:nonzero">
			<font-face font-family="ChronicaProBookIt">
				<font-face-src>
					<font-face-name name="☞ChronicaProBookIt" />
				</font-face-src>
			</font-face>
			<missing-glyph>
				<path id="svg_3" d="M0 0z" />
			</missing-glyph>
			<glyph d="M652.002 700.004l-425.992 0 -123.017 -700.004 69.9982 0 55.0127 313.009 329.003 0 10.9982 59.0001 -329.003 0 46.9941 268.995 355.994 0 10.0123 59.0001z" horiz-adv-x="568" unicode="F" />
			<glyph d="M385.001 509.004c-74.6648,0 -139.339,-24.0119 -194.001,-72.0138 -54.6622,-47.98 -88.6644,-110.661 -102.007,-187.998 -13.3205,-77.3157 -1.66506,-139.996 35.0101,-187.998 36.6532,-48.0019 92.3232,-71.9919 166.988,-71.9919 41.9989,0 83.3406,10.6695 124.003,32.0086 40.6625,21.3172 74.0075,49.3164 100.013,83.9979l-18.0089 -105.008 68.0046 0 86.9994 498.006 -68.0046 0 -17.987 -105.008c-13.3424,35.3387 -36.3465,63.4914 -69.0124,84.5018 -32.6658,21.0104 -69.9982,31.5047 -111.997,31.5047zm-4.99518 -60.9938c58.6715,0 102.664,-18.3376 132,-55.0127 29.3357,-36.6751 38.6688,-84.6552 27.9993,-144.006 -10.6695,-59.3287 -37.179,-107.331 -79.5066,-143.984 -42.3276,-36.6751 -93.1557,-55.0127 -152.506,-55.0127 -55.9986,0 -97.8223,18.3376 -125.493,55.0127 -27.6707,36.6532 -36.1712,84.6552 -25.5017,143.984 10.6695,59.3506 36.4999,107.331 77.5129,144.006 40.9911,36.6751 89.497,55.0127 145.496,55.0127z" horiz-adv-x="647" unicode="a" />
			<glyph d="M388.003 509.004c-75.344,0 -140.676,-23.8366 -195.995,-71.5099 -55.3413,-47.6514 -89.6722,-109.828 -103.015,-186.487 -13.9996,-79.3313 -1.48979,-142.845 37.5077,-190.518 38.9975,-47.6514 99.1587,-71.488 180.506,-71.488 65.3317,0 126.983,17.6584 184.997,52.9971l-24.9978 46.9941c-16.6725,-11.3268 -39.1727,-20.6599 -67.5007,-27.9993 -28.3279,-7.3175 -55.4947,-10.9982 -81.5003,-10.9982 -58.6715,0 -102.511,16.8478 -131.496,50.4995 -29.0071,33.6736 -39.8519,79.8352 -32.5125,138.507l416.002 0c4.66655,7.99667 8.3253,20.3313 10.9982,37.0038 11.3268,70.6555 -0.5039,127.158 -35.4921,169.486 -35.0101,42.3495 -87.5033,63.5133 -157.502,63.5133zm-10.9982 -60.9938c47.3228,0 83.8226,-14.3502 109.5,-43.0067 25.6551,-28.6785 35.1634,-66.3395 28.5032,-113.005l-346.004 0c15.3361,46.6655 41.9989,84.3265 79.9886,113.005 38.0116,28.6566 80.6678,43.0067 128.012,43.0067z" horiz-adv-x="569" unicode="e" />
			<glyph d="M279.007 723.009l-68.0046 0 -127.005 -723.009 68.0046 0 127.005 723.009z" horiz-adv-x="236" unicode="l" />
			<glyph d="M417.996 509.004c-39.3261,0 -77.491,-10.8448 -114.495,-32.5125 -37.0038,-21.6677 -65.1783,-50.4995 -84.5018,-86.4955l18.9948 108.01 -68.0046 0 -86.9994 -498.006 68.0046 0 43.0067 245.005c12.006,62.0016 37.5077,111.318 76.5051,147.993 38.9975,36.6751 83.1654,55.0127 132.504,55.0127 39.9833,0 69.9982,-14.6788 89.979,-44.0145 20.0026,-29.3357 25.677,-69.3191 17.0011,-119.994l-49.9956 -284.002 68.0046 0 49.9956 284.002c12.006,69.341 3.17676,124.157 -26.4876,164.49 -29.6644,40.3339 -74.1828,60.5118 -133.512,60.5118z" horiz-adv-x="602" unicode="n" />
			<glyph d="M394.006 509.004c-71.3347,0 -137.17,-25.5017 -197.507,-76.5051 -60.3365,-51.0034 -96.8364,-112.172 -109.5,-183.507 -12.6632,-71.9919 1.84033,-133.336 43.5106,-183.989 41.6484,-50.6748 98.4795,-76.0012 170.493,-76.0012 71.9919,0 138.156,25.3264 198.493,76.0012 60.3365,50.6529 96.8364,111.997 109.5,183.989 12.6632,70.6774 -1.99369,131.671 -43.9926,183.003 -41.9989,51.332 -99.0053,77.009 -170.997,77.009zm-10.9982 -60.9938c53.3257,0 95.5,-19.5206 126.501,-58.5181 31.0008,-38.9975 41.495,-86.1669 31.4828,-141.486 -9.3331,-54.6622 -36.4999,-101.35 -81.5003,-139.996 -45.0004,-38.6688 -94.1635,-58.0142 -147.489,-58.0142 -52.6685,0 -94.4922,19.3454 -125.493,58.0142 -31.0008,38.6469 -41.517,85.3343 -31.5047,139.996 9.99036,54.6622 37.3324,101.656 82.0042,141.004 44.6499,39.3261 93.331,59.0001 145.999,59.0001z" horiz-adv-x="610" unicode="o" />
		</font>
		<font id="FontID1" font-style="normal" font-variant="normal" font-weight="300" horiz-adv-x="417" style="fill-rule:nonzero">
			<font-face font-family="Bison Bold">
				<font-face-src>
					<font-face-name name="Bison Bold" />
				</font-face-src>
			</font-face>
			<missing-glyph>
				<path id="svg_4" d="M0 0z" />
			</missing-glyph>
			<glyph d="M196.994 -7.99488c47.9959,0 86.6645,13.6713 116.006,40.9871 33.3387,32.0062 49.9947,75.6849 49.9947,131.009l0 89.9957 -109.983 0 0 -89.9957c0,-24.6775 -4.69033,-41.3335 -14.0177,-49.9947 -8.66112,-7.99488 -22.6522,-12.019 -41.9998,-12.019 -18.6547,0 -32.326,4.02409 -40.9871,12.019 -9.9936,9.32736 -15.0037,25.9834 -15.0037,49.9947l0 372.002c0,23.9846 5.01013,40.6673 15.0037,49.9947 8.66112,7.99488 22.3324,11.9923 40.9871,11.9923 19.3476,0 33.3387,-3.99744 41.9998,-11.9923 9.32736,-8.66112 14.0177,-25.3438 14.0177,-49.9947l0 -62.0136 109.983 0 0 62.0136c0,55.3246 -16.656,99.0033 -49.9947,131.009 -29.3412,27.3159 -68.0098,40.9871 -116.006,40.9871 -46.6635,0 -85.3321,-13.6713 -116.006,-40.9871 -33.312,-33.3387 -49.9947,-77.0174 -49.9947,-131.009l0 -372.002c0,-53.9921 16.6827,-97.6708 49.9947,-131.009 30.6737,-27.3159 69.3423,-40.9871 116.006,-40.9871z" horiz-adv-x="389" unicode="C" />
			<glyph d="M150.011 700.005l-110.01 0 0 -700.005 110.01 0 0 700.005z" horiz-adv-x="190" unicode="I" />
			<glyph d="M150.011 280.007l55.9908 0c47.9959,0 86.6645,13.6713 116.006,40.9871 33.3387,30.6737 49.9947,74.3258 49.9947,131.009l0 76.0047c0,55.9908 -16.656,99.3231 -49.9947,129.997 -30.0075,27.9821 -68.676,41.9998 -116.006,41.9998l-166 0 0 -700.005 110.01 0 0 280.007zm0 309.988l55.9908 0c18.6547,0 32.326,-3.99744 40.9871,-11.9923 10.0203,-9.9936 15.0037,-26.6763 15.0037,-49.9947l0 -76.0047c0,-24.0113 -4.98348,-40.6673 -15.0037,-49.9947 -8.66112,-8.02153 -22.3324,-12.019 -40.9871,-12.019l-55.9908 0 0 200.005z" horiz-adv-x="391" unicode="P" />
			<glyph d="M189.992 -7.9869c48.0061,0 86.6706,13.6596 115.994,40.9787 33.3587,32.0041 50.0099,75.6639 50.0099,131.008l0 43.9985c0,64.0081 -24.6663,117.997 -73.9988,161.996 -13.3209,11.9945 -37.3381,27.3474 -71.995,46.0023 -19.3323,10.668 -32.3427,18.6831 -39.0032,24.0172 -24.6663,21.9852 -36.9994,48.3165 -36.9994,78.9942l0 16.9898c0,23.9889 4.99534,40.6683 15.0143,50.0099 8.66424,7.9869 22.3238,11.9945 40.9787,11.9945 19.3323,0 33.0201,-4.00756 41.007,-11.9945 9.99069,-8.66424 15.0143,-25.3436 15.0143,-50.0099l0 -60.9883 109.982 0 0 60.9883c0,55.3439 -16.6511,99.0038 -50.0099,131.008 -29.3229,27.3192 -67.9875,41.007 -115.994,41.007 -48.0061,0 -86.6706,-13.6878 -115.994,-41.007 -33.3305,-32.0041 -50.0099,-75.6639 -50.0099,-131.008l0 -16.9898c0,-31.355 6.35001,-60.6779 19.0218,-87.9971 12.6436,-27.3474 30.9881,-51.675 54.977,-73.011 14.6756,-12.6718 37.6767,-27.3192 69.0035,-43.9985 22.6625,-12.6718 36.689,-21.336 41.9948,-25.9927 24.6945,-22.6625 37.0276,-49.3325 37.0276,-80.0102l0 -43.9985c0,-24.6663 -5.02357,-41.3456 -15.0143,-50.0099 -7.9869,-7.9869 -21.6747,-11.9945 -41.007,-11.9945 -18.6549,0 -32.3145,4.00756 -40.9787,11.9945 -10.0189,9.34157 -15.0143,26.0209 -15.0143,50.0099l0 90.9886 -110.01 0 0 -90.9886c0,-55.3439 16.6794,-99.0038 50.0099,-131.008 29.3229,-27.3192 67.9875,-40.9787 115.994,-40.9787z" horiz-adv-x="380" unicode="S" />
			<glyph d="M271 110.996l-125.999 0 -20.0139 -110.996 -111.982 0 139.99 700.005 110.01 0 139.99 -700.005 -112.008 0 -19.9872 110.996zm-19.0012 110.01l-43.9985 250.986 -43.9985 -250.986 87.997 0z" horiz-adv-x="417" unicode="a" />
			<glyph d="M205.994 0c48.0061,0 86.332,13.0105 115.006,39.0032 17.3285,15.3247 30.0003,34.0078 37.9872,55.993 8.69246,20.0096 13.0105,44.3372 13.0105,73.011l0 63.9799c0,58.025 -18.3445,100.02 -55.0052,126.012 26.6701,24.6663 40.0192,60.6779 40.0192,108.007l0 64.9959c0,27.9965 -4.34623,52.6628 -13.0105,73.9988 -8.01513,21.9852 -20.6587,40.6683 -38.0154,55.993 -29.3229,25.9927 -67.6488,39.0032 -114.978,39.0032l-151.017 0 0 -699.997 166.003 0zm-55.993 293.991l55.993 0c18.6831,0 32.3427,-3.97934 41.007,-11.9945 9.99069,-9.34157 14.986,-25.9927 14.986,-50.0099l0 -63.9799c0,-22.6625 -4.65668,-38.3541 -13.9983,-47.0183 -7.9869,-7.30957 -21.9852,-10.9785 -41.9948,-10.9785l-55.993 0 0 183.981zm0 295.995l41.007 0c19.9814,0 33.9796,-3.64067 41.9948,-10.9785 9.34157,-9.34157 13.9983,-25.3436 13.9983,-48.0061l0 -64.9959c0,-23.3398 -4.99534,-40.0192 -15.0143,-50.0099 -8.66424,-7.9869 -22.3238,-11.9945 -40.9787,-11.9945l-41.007 0 0 185.985z" horiz-adv-x="397" unicode="b" />
			<glyph d="M196.994 -7.99488c47.9959,0 86.6645,13.6713 116.006,40.9871 33.3387,32.0062 49.9947,75.6849 49.9947,131.009l0 89.9957 -109.983 0 0 -89.9957c0,-24.6775 -4.69033,-41.3335 -14.0177,-49.9947 -8.66112,-7.99488 -22.6522,-12.019 -41.9998,-12.019 -18.6547,0 -32.326,4.02409 -40.9871,12.019 -9.9936,9.32736 -15.0037,25.9834 -15.0037,49.9947l0 372.002c0,23.9846 5.01013,40.6673 15.0037,49.9947 8.66112,7.99488 22.3324,11.9923 40.9871,11.9923 19.3476,0 33.3387,-3.99744 41.9998,-11.9923 9.32736,-8.66112 14.0177,-25.3438 14.0177,-49.9947l0 -62.0136 109.983 0 0 62.0136c0,55.3246 -16.656,99.0033 -49.9947,131.009 -29.3412,27.3159 -68.0098,40.9871 -116.006,40.9871 -46.6635,0 -85.3321,-13.6713 -116.006,-40.9871 -33.312,-33.3387 -49.9947,-77.0174 -49.9947,-131.009l0 -372.002c0,-53.9921 16.6827,-97.6708 49.9947,-131.009 30.6737,-27.3159 69.3423,-40.9871 116.006,-40.9871z" horiz-adv-x="389" unicode="c" />
			<glyph d="M206.001 0c47.9959,0 86.3447,13.005 114.993,38.9884 16.6827,14.6839 29.661,33.3387 39.015,56.0175 7.99488,21.3197 11.9923,45.6508 11.9923,72.9933l0 360.01c0,55.9908 -16.656,99.3231 -49.9947,129.997 -30.0075,27.9821 -68.676,41.9998 -116.006,41.9998l-166 0 0 -700.005 166 0zm-55.9908 589.996l55.9908 0c18.6547,0 32.326,-3.99744 40.9871,-11.9923 10.0203,-9.9936 15.0037,-26.6763 15.0037,-49.9947l0 -360.01c0,-23.3451 -4.66368,-38.9884 -13.991,-47.0099 -7.99488,-7.32864 -22.0126,-10.9796 -41.9998,-10.9796l-55.9908 0 0 479.986z" horiz-adv-x="402" unicode="d" />
			<glyph d="M150.011 589.996l0 -175.994 124.001 0 0 -110.01 -124.001 0 0 -193.983 179.991 0 0 -110.01 -290.001 0 0 700.005 290.001 0 0 -110.01 -179.991 0z" horiz-adv-x="358" unicode="e" />
			<glyph d="M371.997 699.996l0 -699.996 -110.002 0 0 304.001 -111.993 0 0 -304.001 -110.002 0 0 699.996 110.002 0 0 -285.993 111.993 0 0 285.993 110.002 0z" horiz-adv-x="411" unicode="h" />
			<glyph d="M150.011 700.005l-110.01 0 0 -700.005 110.01 0 0 700.005z" horiz-adv-x="190" unicode="i" />
			<glyph d="M181.004 -7.99488c46.6635,0 85.3321,13.6713 116.006,40.9871 33.312,33.3387 49.9947,77.0174 49.9947,131.009l0 536.004 -110.01 0 0 -536.004c0,-24.0113 -4.98348,-40.6673 -15.0037,-49.9947 -8.66112,-7.99488 -22.3324,-12.019 -40.9871,-12.019 -19.3476,0 -33.3387,4.02409 -41.9998,12.019 -9.32736,8.66112 -14.0177,25.3171 -14.0177,49.9947l0 87.011 -109.983 0 0 -87.011c0,-55.3246 16.656,-99.0033 49.9947,-131.009 29.3412,-27.3159 68.0098,-40.9871 116.006,-40.9871z" horiz-adv-x="381" unicode="j" />
			<glyph d="M501.99 699.997l0 -699.997 -109.982 0 0 348.997 -89.0131 -238.986 -64.0081 0 -88.9848 238.986 0 -348.997 -110.01 0 0 699.997 63.0203 0 167.979 -388 168.007 388 62.9921 0z" horiz-adv-x="542" unicode="m" />
			<glyph d="M377.998 0l-63.9857 0 -167.999 354.999 0 -354.999 -110.01 0 0 700.005 63.9857 0 167.999 -354.013 0 354.013 110.01 0 0 -700.005z" horiz-adv-x="414" unicode="n" />
			<glyph d="M196.994 -7.99488c47.9959,0 86.6645,13.6713 116.006,40.9871 33.3387,32.0062 49.9947,75.6849 49.9947,131.009l0 372.002c0,55.3246 -16.656,99.0033 -49.9947,131.009 -29.3412,27.3159 -68.0098,40.9871 -116.006,40.9871 -47.9959,0 -86.6645,-13.6713 -116.006,-40.9871 -33.312,-32.0062 -49.9947,-75.6849 -49.9947,-131.009l0 -372.002c0,-55.3246 16.6827,-99.0033 49.9947,-131.009 29.3412,-27.3159 68.0098,-40.9871 116.006,-40.9871zm0 605.986c19.3476,0 33.0189,-3.99744 41.0138,-11.9923 9.9936,-8.66112 15.0037,-25.3438 15.0037,-49.9947l0 -372.002c0,-24.6775 -5.01013,-41.3335 -15.0037,-49.9947 -7.99488,-7.99488 -21.6661,-12.019 -41.0138,-12.019 -18.6547,0 -32.326,4.02409 -40.9871,12.019 -9.9936,9.32736 -15.0037,25.9834 -15.0037,49.9947l0 372.002c0,23.9846 5.01013,40.6673 15.0037,49.9947 8.66112,7.99488 22.3324,11.9923 40.9871,11.9923z" horiz-adv-x="393" unicode="o" />
			<glyph d="M150.002 280.004l56.0035 0c47.9952,0 86.6588,13.6564 115.991,40.9965 33.3429,30.6689 50.0007,74.3393 50.0007,130.998l0 76.0038c0,56.0035 -16.6578,99.3329 -50.0007,130.002 -30.0004,27.9949 -68.664,41.9924 -115.991,41.9924l-166.005 0 0 -699.996 110.002 0 0 280.004zm0 309.991l56.0035 0c18.6633,0 32.3333,-3.99733 40.9965,-11.992 10.0001,-10.0001 14.9934,-26.6716 14.9934,-50.0007l0 -76.0038c0,-23.9976 -4.99325,-40.669 -14.9934,-50.0007 -8.66315,-7.99465 -22.3332,-11.992 -40.9965,-11.992l-56.0035 0 0 199.989z" horiz-adv-x="391" unicode="p" />
			<glyph d="M368.991 0l-111.982 0 -57.0035 280.993 -49.9947 0 0 -280.993 -110.01 0 0 700.005 166 0c47.3297,0 85.9983,-14.0177 116.006,-41.9998 33.3387,-30.6737 49.9947,-74.006 49.9947,-129.997l0 -75.0187c0,-56.6571 -16.656,-100.336 -49.9947,-130.983 -4.66368,-4.66368 -10.0203,-9.00757 -16.0164,-13.005l62.9997 -309.002zm-106.998 528.009c0,23.3184 -4.98348,40.0011 -15.0037,49.9947 -8.66112,7.99488 -22.3324,11.9923 -40.9871,11.9923l-55.9908 0 0 -198.993 55.9908 0c18.6547,0 32.326,3.99744 40.9871,11.9923 10.0203,9.32736 15.0037,26.01 15.0037,49.9947l0 75.0187z" horiz-adv-x="396" unicode="r" />
			<glyph d="M190.012 -7.99488c47.9959,0 86.6645,13.6713 115.979,40.9871 33.3387,32.0062 50.0213,75.6849 50.0213,131.009l0 43.9985c0,64.0124 -24.6775,118.004 -74.006,162.003 -13.3515,11.9923 -37.3361,27.3425 -72.0072,45.9972 -19.321,10.6598 -32.326,18.6547 -38.9884,24.0113 -24.6775,21.9859 -37.0163,48.3157 -37.0163,78.9894l0 17.0025c0,23.9846 5.01013,40.6673 15.0037,49.9947 8.66112,7.99488 22.3324,11.9923 41.0138,11.9923 19.321,0 32.9922,-3.99744 40.9871,-11.9923 9.9936,-8.66112 15.0037,-25.3438 15.0037,-49.9947l0 -61.001 110.01 0 0 61.001c0,55.3246 -16.6827,99.0033 -50.0213,131.009 -29.3146,27.3159 -67.9832,40.9871 -115.979,40.9871 -48.0226,0 -86.6912,-13.6713 -116.006,-40.9871 -33.3387,-32.0062 -49.9947,-75.6849 -49.9947,-131.009l0 -17.0025c0,-31.3399 6.31596,-60.6812 19.0012,-87.997 12.6586,-27.3425 30.9935,-51.6736 54.9781,-72.9933 14.6839,-12.6852 37.6825,-27.3425 69.0225,-43.9985 22.6522,-12.6852 36.6432,-21.3463 41.9998,-26.01 24.6509,-22.6788 36.9897,-49.3284 36.9897,-80.0021l0 -43.9985c0,-24.6775 -5.01013,-41.3335 -15.0037,-49.9947 -7.99488,-7.99488 -21.6661,-12.019 -40.9871,-12.019 -18.6814,0 -32.3526,4.02409 -41.0138,12.019 -9.9936,9.32736 -15.0037,25.9834 -15.0037,49.9947l0 91.0084 -109.983 0 0 -91.0084c0,-55.3246 16.656,-99.0033 49.9947,-131.009 29.3146,-27.3159 67.9832,-40.9871 116.006,-40.9871z" horiz-adv-x="379" unicode="s" />
			<glyph d="M343.993 589.996l-111.982 0 0 -589.996 -110.01 0 0 589.996 -112.008 0 0 110.01 334 0 0 -110.01z" horiz-adv-x="353" unicode="t" />
			<glyph d="M200.991 -7.99488c46.6635,0 85.3321,13.6713 116.006,40.9871 33.3387,33.3387 49.9947,77.0174 49.9947,131.009l0 536.004 -109.983 0 0 -536.004c0,-24.0113 -5.01013,-40.6673 -15.0037,-49.9947 -8.66112,-7.99488 -22.3324,-12.019 -41.0138,-12.019 -19.321,0 -33.312,4.02409 -41.9998,12.019 -9.32736,8.66112 -13.991,25.3171 -13.991,49.9947l0 536.004 -110.01 0 0 -536.004c0,-55.3246 16.6827,-99.0033 50.0213,-131.009 29.3146,-27.3159 67.9832,-40.9871 115.979,-40.9871z" horiz-adv-x="402" unicode="u" />
			<glyph d="M288.994 699.996l112.007 0 -140.002 -699.996 -110.002 0 -140.002 699.996 112.007 0 83.0025 -472.994 82.9889 472.994z" horiz-adv-x="411" unicode="v" />
			<glyph d="M253.005 475l0 62.0063c0,24.6661 -4.66582,41.3239 -14.0111,50.0007 -8.66315,7.99465 -22.6606,11.992 -41.9924,11.992 -18.6633,0 -32.3333,-3.99733 -40.9965,-11.992 -10.0001,-9.34528 -15.007,-26.0031 -15.007,-50.0007l0 -372.011c0,-23.9976 5.00689,-40.6554 15.007,-50.0007 8.66315,-7.99465 22.3332,-11.992 40.9965,-11.992 19.3318,0 33.3292,3.99733 41.9924,11.992 9.34528,8.67679 14.0111,25.3346 14.0111,50.0007l0 90.0012 110.002 0 0 -90.0012c0,-55.335 -16.6714,-98.9918 -50.0007,-130.998 -22.6743,-21.9921 -52.6747,-34.9937 -90.0012,-38.991l0 -1.00956c0,-2.66034 1.66442,-5.33432 4.99325,-7.99465 10.6686,-7.3398 19.3318,-15.6755 26.0031,-25.0072 6.67131,-9.33164 10.0001,-21.9921 10.0001,-37.9951 0,-19.3318 -6.67131,-35.6622 -20.0003,-49.0048 -13.329,-13.329 -29.673,-20.0003 -49.0048,-20.0003 -18.6633,0 -34.8299,6.67131 -48.5,20.0003 -13.6564,13.3426 -20.4914,29.673 -20.4914,49.0048l54.9939 0c0,-3.99733 1.33699,-7.3398 3.99733,-10.0001 2.67398,-2.66034 6.00281,-3.99733 10.0001,-3.99733 4.01097,0 7.3398,1.33699 10.0001,3.99733 2.67398,2.66034 3.99733,6.00281 3.99733,10.0001 0,3.99733 -0.832208,6.99873 -2.49662,9.00422 -1.66442,1.99184 -5.15696,4.99325 -10.4913,8.99057 -18.6769,13.3426 -28.0086,31.01 -28.0086,53.0021l0 1.00956c-33.9977,4.66582 -63.0022,17.6537 -86.9998,38.991 -33.3292,33.3292 -50.0007,76.9997 -50.0007,130.998l0 372.011c0,53.998 16.6714,97.6548 50.0007,130.998 30.6689,27.3264 69.3325,40.9965 116.004,40.9965 47.9952,0 86.6588,-13.67 116.004,-40.9965 33.3292,-32.0059 50.0007,-75.6763 50.0007,-130.998l0 -62.0063 -110.002 0z" horiz-adv-x="390" unicode="ç" />
			<glyph d="M150.011 700.005l-110.01 0 0 -700.005 110.01 0 0 700.005zm82.0009 146.999l-110.01 0 -55.0048 -110.01 55.0048 0 110.01 110.01z" horiz-adv-x="190" unicode="í" />
		</font>
		<font id="FontID0" font-style="normal,italic" font-variant="normal" font-weight="400" horiz-adv-x="720" style="fill-rule:nonzero">
			<font-face font-family="ChronicaProBlackIt">
				<font-face-src>
					<font-face-name name="☞ChronicaProBlackIt" />
				</font-face-src>
			</font-face>
			<missing-glyph>
				<path id="svg_5" d="M0 0z" />
			</missing-glyph>
			<glyph d="M567.004 700.004l-170 0 -395.005 -700.004 194.001 0 79.9959 147.007 216.002 0 31.0034 -147.007 199.005 0 -155.002 700.004zm-121.008 -210.006l38.9985 -195.999 -151.997 0 112.998 195.999z" horiz-adv-x="720" unicode="A" />
			<glyph d="M532.003 711.005c-107.342,0 -202.499,-33.5056 -285.501,-100.502 -83.0014,-66.9963 -134.17,-153.832 -153.507,-260.508 -19.3216,-106.661 0.843932,-193.497 60.5114,-260.494 59.6527,-66.9963 143.157,-100.502 250.5,-100.502 103.33,0 201.655,35.001 294.991,105.003l-81.0027 122.992c-57.3281,-44.6544 -117.321,-66.9963 -179.994,-66.9963 -56.6619,0 -99.6728,18.5073 -129.003,55.507 -29.3303,36.9997 -38.658,85.1631 -27.9978,144.49 10.6602,59.3417 37.1626,107.505 79.5073,144.505 42.3298,36.9997 91.8257,55.507 148.488,55.507 62.673,0 114.345,-22.342 155.002,-67.0111l125.998 122c-67.9883,70.6682 -153.995,106.01 -257.991,106.01z" horiz-adv-x="693" unicode="C" />
			<glyph d="M190.003 700.004l-123.007 -700.004 308.997 0c106.676,0 198.176,31.9954 274.5,96.0009 76.3388,64.0056 124.176,148.665 143.513,253.994 18.6553,104.677 0.99199,189.174 -53.0048,253.505 -53.9968,64.3313 -134.674,96.5043 -242.001,96.5043l-308.997 0zm256.999 -160.007c57.9944,0 101.494,-17.3376 130.499,-51.998 29.0046,-34.6604 38.4951,-80.6621 28.5012,-138.005 -10.0087,-57.3281 -35.6672,-103.33 -77.0051,-137.99 -41.3379,-34.6752 -90.9966,-51.998 -148.991,-51.998l-97.9997 0 66.9963 379.991 97.9997 0z" horiz-adv-x="765" unicode="D" />
			<glyph d="M715.995 700.004l-525.992 0 -123.007 -700.004 526.006 0 27.9978 160.007 -338.994 0 19.9879 115.989 314.002 0 25.999 144.001 -314.002 0 21.0095 120.001 338.994 0 27.9978 160.007z" horiz-adv-x="639" unicode="E" />
			<glyph d="M704.002 700.004l-513.999 0 -123.007 -700.004 186.998 0 48.0005 275.995 291.008 0 25.999 144.001 -291.008 0 21.0095 120.001 327.001 0 27.9978 160.007z" horiz-adv-x="611" unicode="F" />
			<glyph d="M377.001 700.004l-186.998 0 -123.007 -700.004 186.998 0 123.007 700.004z" horiz-adv-x="321" unicode="I" />
			<glyph d="M940.007 700.004l-181.001 0 -251.003 -430.997 -99.9985 430.997 -181.001 0 -186.998 -700.004 185.991 0 95.009 364.993 76.9903 -357.99 125.006 0 205.001 357.99 -33.0022 -364.993 186.006 0 59.0012 700.004z" horiz-adv-x="920" unicode="M" />
			<glyph d="M787.003 700.004l-186.998 0 -65.0124 -367.007 -198.99 367.007 -146 0 -123.007 -700.004 186.998 0 65.0124 373.003 199.997 -373.003 144.993 0 123.007 700.004z" horiz-adv-x="730" unicode="N" />
			<glyph d="M532.995 711.005c-111.325,0 -207.829,-33.5056 -289.498,-100.502 -81.6689,-66.9963 -131.831,-153.832 -150.501,-260.508 -18.6553,-106.661 0.843932,-193.497 58.4978,-260.494 57.6687,-66.9963 142.18,-100.502 253.505,-100.502 111.34,0 207.504,33.3279 288.506,99.9985 81.0027,66.6706 131.165,153.67 150.501,260.997 19.3216,107.342 0.162864,194.341 -57.5058,261.012 -57.6687,66.6558 -142.165,99.9985 -253.505,99.9985zm-28.9898 -160.999c55.3294,0 97.1558,-18.5073 125.494,-55.507 28.3383,-36.9997 37.1626,-85.1631 26.5024,-144.505 -10.675,-59.3269 -36.674,-107.49 -77.9971,-144.49 -41.3379,-36.9997 -89.6641,-55.507 -145.008,-55.507 -55.3294,0 -97.1558,18.6701 -125.494,55.9956 -28.3383,37.3403 -37.1626,85.3408 -26.5024,144.001 10.6602,58.6755 36.674,106.676 77.9971,144.001 41.3379,37.3403 89.6641,56.0104 145.008,56.0104z" horiz-adv-x="815" unicode="O" />
			<glyph d="M190.003 700.004l-123.007 -700.004 186.998 0 42.0041 242.993 142.003 0c72.667,0 134.659,20.6689 186.006,62.0068 51.3318,41.3379 82.9866,95.6604 94.9942,162.997 12.6738,69.3357 0.666262,125.331 -35.993,168.002 -36.674,42.6704 -91.3371,64.0056 -164.004,64.0056l-329 0zm281.992 -160.007c22.0015,0 38.5099,-6.66262 49.5107,-20.0027 11.0007,-13.3252 14.4949,-31.3291 10.4973,-53.9968 -3.99757,-22.0015 -13.8434,-39.6648 -29.508,-53.0048 -15.6646,-13.3252 -34.4976,-19.9879 -56.499,-19.9879l-122.992 0 25.999 146.992 122.992 0z" horiz-adv-x="658" unicode="P" />
			<glyph d="M190.003 700.004l-123.007 -700.004 188.004 0 44.9949 262.996 49.9993 0 104.011 -262.996 188.996 0 1.99879 18.0039 -110.999 253.994 12.9995 3.99757c46.0017,14.0063 84.1711,38.6728 114.493,73.9995 30.3371,35.3415 49.5107,74.6658 57.5058,118.002 12.6738,69.3357 0.666262,125.331 -35.993,168.002 -36.674,42.6704 -91.3371,64.0056 -164.004,64.0056l-329 0zm282.998 -160.007c21.3352,0 37.5031,-6.66262 48.5039,-20.0027 11.0007,-13.3252 14.4949,-31.3291 10.4973,-53.9968 -3.99757,-22.0015 -13.8434,-39.6648 -29.508,-53.0048 -15.6646,-13.3252 -34.157,-19.9879 -55.4922,-19.9879l-123.007 0 25.999 146.992 123.007 0z" horiz-adv-x="674" unicode="R" />
			<glyph d="M436.994 711.005c-82.6609,0 -151.493,-19.0107 -206.497,-57.0024 -55.0036,-38.0065 -88.1687,-89.3383 -99.4951,-153.995 -8.66141,-48.0005 -0.162864,-88.3463 25.4956,-121.008 25.6733,-32.6616 72.8298,-61.6662 141.499,-86.999l81.0027 -29.0046c44.0029,-15.324 63.3393,-38.3323 57.9944,-68.9951 -3.33131,-18.0039 -14.6578,-32.4988 -33.9942,-43.4995 -19.3364,-11.0007 -44.0029,-16.5085 -73.9995,-16.5085 -70.6682,0 -137.665,26.3396 -201.004,79.0039l-97.9997 -140.996c29.9966,-25.999 69.0099,-46.3274 117.01,-61 47.9857,-14.6726 99.658,-22.0015 154.987,-22.0015 88.6721,0 161.842,18.833 219.511,56.499 57.6539,37.666 92.492,89.8417 104.499,156.498 9.99393,54.6779 0.162864,98.3403 -29.508,131.002 -29.6709,32.6616 -76.8274,60.6743 -141.499,84.0082l-81.0027 28.9898c-41.323,14.6726 -59.3269,36.3335 -53.9968,64.9976 7.32888,36.674 40.3311,55.0036 99.0065,55.0036 29.9966,0 61.4886,-4.66383 94.4908,-13.9915 33.0022,-9.34247 60.5114,-21.3352 82.498,-36.0078l88.0058 132.009c-68.6694,41.9893 -151.005,62.9988 -247.006,62.9988z" horiz-adv-x="615" unicode="S" />
			<glyph d="M719 700.004l-580.003 0 -27.9978 -160.007 195.999 0 -94.9942 -539.998 183.992 0 95.009 539.998 199.997 0 27.9978 160.007z" horiz-adv-x="611" unicode="T" />
			<glyph d="M776.003 700.004l-188.004 0 -75.9983 -432.004c-5.99636,-35.3267 -21.1723,-63.8279 -45.4983,-85.5036 -24.3408,-21.6609 -52.842,-32.4988 -85.5036,-32.4988 -32.6616,0 -57.0024,10.8379 -72.9927,32.4988 -16.0051,21.6757 -21.0095,50.1769 -14.9983,85.5036l75.9983 432.004 -187.012 0 -75.9983 -432.004c-14.6578,-83.3272 0.666262,-150.664 46.0017,-201.996 45.3354,-51.3318 112.332,-77.0051 201.004,-77.0051 89.3383,0 165.84,25.6733 229.505,77.0051 63.665,51.3318 102.826,118.669 117.499,201.996l75.9983 432.004z" horiz-adv-x="713" unicode="U" />
			<glyph d="M798.004 700.004l-202.011 0 -210.998 -449.001 -53.9968 449.001 -201.004 0 127.004 -700.004 166.003 0 375.002 700.004z" horiz-adv-x="680" unicode="V" />
			<glyph d="M1093 700.007l-192.011 0 -177.994 -386.016 -47.0008 363.005 -134.003 0 -175.999 -363.005 -41.9961 386.016 -191.992 0 98.9882 -700.007 143.994 0 182.001 378.001 47.0008 -378.001 144.012 0 344.999 700.007z" horiz-adv-x="979" unicode="W" />
			<glyph d="M368.991 531.998c-74.6736,0 -139.008,-24.8283 -193.004,-74.4849 -53.9959,-49.6944 -88.333,-115.161 -102.973,-196.513 -14.6781,-81.3146 -3.69783,-147.008 32.9786,-197.004 36.6765,-49.9962 92.3327,-75.0132 167.006,-75.0132 32.6768,0 64.8253,7.69753 96.4833,23.0171 31.6957,15.3196 56.8636,35.3181 75.5037,59.9955l-10.9803 -71.9946 183.005 0 90.9743 521.017 -182.967 0 -11.9991 -71.0135c-9.99925,24.6774 -28.3375,44.4872 -55.0147,59.5049 -26.6772,14.98 -56.3354,22.4889 -89.0122,22.4889zm23.0171 -141.008c33.9974,0 59.1653,-11.9991 75.5037,-35.9973 16.3384,-23.9982 20.8286,-55.3166 13.4707,-93.9929 -6.64101,-38.6763 -22.6398,-69.9947 -47.9964,-93.9929 -25.3188,-23.9982 -54.977,-35.9973 -88.9744,-35.9973 -33.356,0 -57.8447,11.9991 -73.5039,35.9973 -15.6592,23.9982 -20.1872,55.3166 -13.5084,93.9929 7.3202,38.6763 23.5077,69.9947 48.4869,93.9929 25.017,23.9982 53.845,35.9973 86.5218,35.9973z" horiz-adv-x="669" unicode="a" />
			<glyph d="M408.007 531.998c-86.6727,0 -160.667,-24.8283 -222.021,-74.4849 -61.3161,-49.6944 -99.3133,-115.161 -113.991,-196.513 -14.6781,-81.3146 0,-147.008 43.9967,-197.004 43.9967,-49.9962 109.35,-75.0132 196.023,-75.0132 43.9967,0 88.333,7.16927 132.971,21.5078 44.6759,14.3385 81.6919,33.1673 111.01,56.524l-67.9949 109.992c-39.997,-29.9977 -83.0126,-45.0155 -129.009,-45.0155 -37.9971,0 -66.4855,11.8482 -85.503,35.5068 -18.9797,23.6586 -25.1679,54.8261 -18.4892,93.5024 7.3202,38.6763 24.6774,69.6551 51.9961,93.0118 27.3564,23.319 59.9955,34.9785 97.9926,34.9785 44.6759,0 82.3334,-14.6404 113.01,-43.9967l107.011 109.011c-20.6777,23.319 -51.015,42.1478 -91.012,56.4863 -39.997,14.3385 -81.9938,21.5078 -125.99,21.5078z" horiz-adv-x="557" unicode="c" />
			<glyph d="M394.008 531.998c-81.9938,0 -152.517,-24.8283 -211.493,-74.4849 -59.0144,-49.6944 -95.5022,-114.52 -109.501,-194.514 -14.6781,-82.673 0.490529,-149.008 45.4683,-199.004 45.0155,-49.9962 111.501,-75.0132 199.532,-75.0132 80.6354,0 152.97,19.0174 217.002,57.0146l-42.0346 111.01c-35.3181,-19.357 -78.9752,-29.0167 -130.971,-29.0167 -41.9968,0 -74.1831,8.82952 -96.521,26.5263 -22.3379,17.659 -31.1675,41.1667 -26.4886,70.4852l366.01 0c5.99955,12.6783 10.3388,28.3375 12.9802,47.0153 13.9989,77.3149 0.188665,139.989 -41.5063,187.986 -41.6572,47.9964 -102.483,71.9946 -182.477,71.9946zm-21.0173 -125.99c28.6771,0 50.8264,-8.33899 66.5233,-25.017 15.6592,-16.6403 21.8097,-39.3178 18.4892,-67.9949l-203.004 0c7.3202,27.9979 21.6587,50.4868 43.0156,67.5043 21.3191,17.0176 46.3361,25.5075 74.9755,25.5075z" horiz-adv-x="589" unicode="e" />
			<glyph d="M364.002 723l-183.996 0 -127.004 -723 183.996 0 49.9927 284.997c5.34924,32.0048 16.8456,57.1734 34.5071,75.5059 17.6616,18.3325 38.8409,27.4897 63.5018,27.4897 21.9954,0 38.0068,-8.48626 47.9981,-25.495 10.0094,-16.9906 12.675,-40.491 7.99666,-70.5012l-50.9901 -291.996 183.996 0 53.0028 304c12.0041,68.6698 4.82338,123.83 -21.5058,165.5 -26.3292,41.6697 -67.4911,62.5045 -123.504,62.5045 -31.3339,0 -62.3232,-7.67027 -92.9861,-23.0108 -30.6811,-15.3224 -55.0156,-35.3231 -73.0036,-60.0022l47.9981 274.008z" horiz-adv-x="621" unicode="h" />
			<glyph d="M368.01 717.984l-194.023 0 -22.9794 -133.99 193.985 0 23.0171 133.99zm-39.997 -196.966l-184.024 0 -90.9743 -521.017 183.986 0 91.012 521.017z" horiz-adv-x="290" unicode="i" />
			<glyph d="M364.01 723.002l-184.024 0 -126.972 -723.002 183.986 0 127.009 723.002z" horiz-adv-x="290" unicode="l" />
			<glyph d="M768.018 531.998c-31.3561,0 -63.3537,-7.50887 -96.0305,-22.4889 -32.639,-15.0177 -60.3351,-34.8276 -82.9749,-59.5049 -8.67859,24.6774 -25.017,44.4872 -49.0152,59.5049 -23.9982,14.98 -50.6754,22.4889 -79.994,22.4889 -29.3185,0 -57.1655,-7.50887 -83.5031,-22.4889 -26.3376,-15.0177 -46.4871,-35.1672 -60.486,-60.5237l11.9991 72.0323 -184.024 0 -90.9743 -521.017 183.986 0 51.9961 296.996c5.32035,29.3185 15.3196,51.6565 29.9977,67.0138 14.6781,15.3196 32.3372,22.9794 53.0149,22.9794 40.6384,0 55.9958,-27.6583 45.9965,-82.9749l-53.0149 -304.015 184.024 0 51.9961 298.015c5.99955,29.3185 16.3384,51.4678 30.9788,66.4855 14.6781,15.0177 31.9976,22.4889 51.9961,22.4889 40.6762,0 55.9958,-27.6583 45.9965,-82.9749l-52.9771 -304.015 183.986 0 53.0149 302.996c11.9991,69.3533 4.67889,124.821 -21.9983,166.516 -26.6772,41.6572 -67.9949,62.4859 -123.991,62.4859z" horiz-adv-x="908" unicode="m" />
			<glyph d="M482.001 531.998c-31.3184,0 -62.3349,-7.6598 -93.0118,-22.9794 -30.6392,-15.3573 -54.977,-35.3558 -72.9756,-60.0332l11.9991 72.0323 -184.024 0 -90.9743 -521.017 183.986 0 49.9962 284.016c5.32035,31.9976 17.0176,57.3164 35.0162,75.9943 17.9986,18.6401 38.9782,27.9979 62.9764,27.9979 21.9983,0 37.9971,-8.67859 47.9964,-25.998 9.99925,-17.3572 12.3387,-41.0158 7.01834,-71.0135l-49.9962 -290.997 183.986 0 53.0149 304.015c11.9991,68.6363 4.82982,123.802 -21.5078,165.497 -26.3376,41.6572 -67.5043,62.4859 -123.5,62.4859z" horiz-adv-x="621" unicode="n" />
			<glyph d="M416.006 531.998c-87.3519,0 -163.007,-25.1679 -227.002,-75.5037 -63.9952,-50.3358 -103.011,-115.501 -117.01,-195.495 -13.9989,-80.6732 1.99985,-146.178 47.9964,-196.513 45.9965,-50.3358 112.671,-75.5037 200.023,-75.5037 87.9934,0 163.988,25.1679 227.983,75.5037 63.9952,50.3358 103.011,115.84 117.01,196.513 13.9989,79.994 -1.99985,145.159 -47.9964,195.495 -45.9965,50.3358 -113.01,75.5037 -201.004,75.5037zm-25.017 -143.989c37.3557,0 65.5045,-11.9991 84.5219,-35.9973 18.9797,-23.9982 25.1679,-54.6751 18.4892,-91.9931 -7.3202,-37.3557 -24.8283,-67.8439 -52.4866,-91.5025 -27.696,-23.6963 -59.8445,-35.5068 -96.521,-35.5068 -36.6765,0 -64.6744,11.8104 -83.9937,35.5068 -19.3193,23.6586 -25.3188,54.1469 -17.9986,91.5025 7.3202,37.3179 24.6774,67.9949 51.9961,91.9931 27.3187,23.9982 59.354,35.9973 95.9928,35.9973z" horiz-adv-x="647" unicode="o" />
			<glyph d="M488.993 532.005c-33.3285,0 -65.8229,-7.50707 -97.5013,-22.5031 -31.6603,-14.996 -56.8289,-34.8335 -75.4878,-59.4945l12.0041 70.9908 -184.014 0 -131.99 -744.995 183.996 0 53.0028 296.003c9.9913,-24.679 27.9974,-44.6798 54.0001,-60.0022 26.0028,-15.3405 55.6684,-23.0108 88.9969,-23.0108 74.0009,0 137.992,25.0054 191.992,74.9982 54.0001,50.0109 88.3441,115.671 103.014,197.015 14.6696,81.3266 3.82607,146.823 -32.5125,196.489 -36.3204,49.6664 -91.4992,74.5086 -165.5,74.5086zm-71.9881 -141.002c32.6576,0 57.1553,-12.0041 73.4931,-35.9941 16.3379,-24.0081 20.8348,-55.342 13.5091,-94.0016 -6.67295,-38.6777 -22.3399,-70.0116 -47.0008,-94.0016 -24.679,-24.0081 -53.6738,-36.0122 -87.0022,-36.0122 -33.9994,0 -59.3313,12.0041 -75.9955,36.0122 -16.6824,23.99 -21.669,55.3239 -15.0141,94.0016 7.34387,38.6596 23.6636,69.9935 49.0136,94.0016 25.3318,23.99 54.9975,35.9941 88.9969,35.9941z" horiz-adv-x="669" unicode="p" />
			<glyph d="M472.002 531.998c-37.3179,0 -72.1832,-14.1499 -104.52,-42.4874 -32.2994,-28.3375 -56.4863,-66.1837 -72.4851,-113.501l25.998 145.008 -177.006 0 -90.9743 -521.017 183.986 0 39.0159 221.983c6.64101,40.6762 22.4889,73.5039 47.4681,98.5209 25.017,24.9792 54.1846,37.5066 87.5028,37.5066 19.9985,0 36.6765,-1.35839 49.9962,-3.9997l31.0165 175.987 -19.9985 1.99985z" horiz-adv-x="412" unicode="r" />
			<glyph d="M346.993 531.998c-64.6744,0 -119.161,-14.4895 -163.497,-43.5062 -44.3363,-28.9789 -70.8248,-67.5043 -79.5034,-115.501 -7.3202,-39.997 -1.66025,-71.9946 17.0176,-95.9928 18.6401,-23.9982 48.6756,-44.6759 89.9932,-61.9953l75.9943 -27.9979c29.3185,-10.6784 42.3364,-23.9982 39.0159,-39.997 -4.67889,-20.6777 -27.3564,-31.0165 -67.9949,-31.0165 -61.3539,0 -116.67,14.6781 -166.025,43.9967l-71.9946 -116.972c21.3191,-15.9988 52.6753,-29.0167 93.9929,-39.0159 41.3554,-9.99925 85.352,-15.0177 131.99,-15.0177 68.0326,0 124.67,15.0177 170.025,45.0155 45.3173,29.9977 72.3342,69.9947 80.975,119.991 12.6783,72.6738 -24.3001,125.689 -110.973,159.007l-73.0134 27.9979c-27.3187,10.6784 -39.6574,23.3567 -36.9783,37.9971 3.3205,19.9985 20.9795,29.9977 52.9771,29.9977 23.3567,0 50.5245,-3.9997 81.5033,-11.9991 31.0165,-7.9994 56.8259,-17.3194 77.5036,-27.9979l59.9955 115.991c-50.6754,31.3561 -117.651,47.0153 -201.004,47.0153z" horiz-adv-x="498" unicode="s" />
			<glyph d="M384.009 653.988l-133.009 0 -53.0149 -132.971 -91.9931 0 -22.9794 -134.028 73.9944 0 -41.9968 -231.982c-8.67859,-49.3548 0.981058,-89.3517 28.9789,-119.991 27.9979,-30.6769 68.6741,-46.0343 122.029,-46.0343 68.6363,0 126.632,16.0365 173.987,48.0341l-19.9985 115.991c-24.6774,-13.3575 -50.3358,-19.9985 -77.0131,-19.9985 -15.3196,0 -26.8282,4.64116 -34.488,13.9989 -7.6598,9.32005 -10.1879,22.3379 -7.50887,38.9782l35.9973 201.004 139.008 0 22.9794 134.028 -138.971 0 23.9982 132.971z" horiz-adv-x="436" unicode="t" />
			<glyph d="M657.988 521.017l-183.005 0 -50.9773 -289.035c-5.32035,-33.3182 -17.1685,-58.1466 -35.5068,-74.4849 -18.3382,-16.3384 -38.8273,-24.4887 -61.5048,-24.4887 -47.9964,0 -66.6742,30.6392 -55.9958,91.9931l51.015 296.015 -184.024 0 -52.9771 -304.015c-12.6783,-69.9947 -5.35809,-125.5 21.9983,-166.516 27.3187,-40.978 68.6741,-61.5048 123.991,-61.5048 31.3184,0 62.184,7.50887 92.4836,22.5266 30.3373,14.98 54.5242,35.1672 72.5228,60.486l-11.9991 -71.9946 183.005 0 90.9743 521.017z" horiz-adv-x="619" unicode="u" />
			<glyph d="M659.007 915c-0.681068,-0.666262 -3.16845,-3.99757 -7.50655,-9.99393 -4.33811,-6.01116 -7.16602,-9.6682 -8.49854,-11.0007 -1.33252,-1.33252 -3.99757,-4.50097 -7.99514,-9.50534 -4.01238,-5.00437 -7.50655,-8.33568 -10.5121,-9.99393 -2.99078,-1.67306 -6.98835,-3.83471 -11.9927,-6.49976 -5.00437,-2.67985 -10.1716,-4.50097 -15.5017,-5.50777 -5.3301,-0.99199 -11.3265,-1.49539 -18.0039,-1.49539 -8.66141,0 -27.6573,8.66141 -57.0024,25.999 -29.3303,17.3376 -56.6619,25.999 -81.9946,25.999 -18.6701,0 -35.3267,-3.33131 -49.9993,-9.99393 -14.6726,-6.67743 -27.9978,-17.1748 -40.0053,-31.5068 -11.9927,-14.332 -21.8238,-27.8349 -29.4932,-40.4939 -7.66942,-12.6738 -17.1748,-30.3371 -28.5012,-53.0048l66.9963 -27.0058c0.666262,0.666262 3.50898,4.33811 8.49854,11.0007 5.00437,6.67743 8.33568,11.0007 10.0087,12.9995 1.65825,1.99879 5.16723,5.50777 10.4973,10.4973 5.3301,5.00437 9.99393,8.33568 13.9915,10.0087 4.01238,1.65825 9.17961,3.49417 15.5017,5.49296 6.33689,1.99879 13.1772,3.00558 20.5061,3.00558 8.66141,0 28.1607,-8.49854 58.4978,-25.4956 30.3371,-17.0119 57.8315,-25.5104 82.498,-25.5104 35.3415,0 63.3393,11.3413 84.0082,34.009 20.6689,22.6677 41.323,56.3362 61.992,100.991l-65.9895 27.0058zm-92.0034 -214.995l-170 0 -395.005 -700.004 194.001 0 79.9959 147.007 216.002 0 31.0034 -147.007 199.005 0 -155.002 700.004zm-121.008 -210.006l38.9985 -195.999 -151.997 0 112.998 195.999z" horiz-adv-x="720" unicode="Ã" />
			<glyph d="M617.003 216.994c-56.6767,-44.6544 -116.67,-66.9963 -180.009,-66.9963 -56.6619,0 -99.658,18.5073 -128.988,55.507 -29.3451,36.9997 -38.6728,85.1631 -28.0126,144.49 10.675,59.3417 37.1774,107.505 79.5073,144.505 42.3298,36.9997 91.8405,55.507 148.502,55.507 63.9908,0 115.663,-22.342 155.002,-67.0111l125.998 122c-68.0031,70.6682 -153.995,106.01 -258.006,106.01 -107.327,0 -202.336,-33.3427 -284.997,-99.9985 -82.6609,-66.6706 -133.667,-153.67 -153.003,-261.012 -17.3228,-96.6672 -1.99879,-177.492 46.0017,-242.49 48.0005,-65.0124 117.677,-103.507 208.999,-115.5 17.3376,-16.0051 23.6745,-36.0078 19.0107,-60.008 -2.67985,-16.6565 -10.1716,-30.1595 -22.5048,-40.4939 -12.3332,-10.3345 -26.1619,-15.5017 -41.5007,-15.5017 -12.6738,0 -25.3328,3.99757 -38.0065,11.9927l-59.0012 -85.9922c24.0002,-17.3376 54.6779,-25.999 92.0034,-25.999 36.674,0 72.8298,10.6602 108.497,31.9954 35.6672,21.3352 56.8395,51.998 63.5022,92.0034 6.67743,34.6604 -0.99199,64.9976 -22.9934,90.9966 88.6573,9.34247 172.325,43.6624 251.003,103.004l-81.0027 122.992z" horiz-adv-x="693" unicode="Ç" />
			<glyph d="M488.001 177.006c-39.997,-29.9977 -82.673,-45.0155 -127.99,-45.0155 -37.9971,0 -66.5233,11.8482 -85.503,35.5068 -19.0174,23.6586 -25.5075,54.8261 -19.508,93.5024 7.3202,38.6763 24.6774,69.6551 51.9961,93.0118 27.3564,23.319 59.9955,34.9785 97.9926,34.9785 44.6759,0 82.3334,-14.6404 113.01,-43.9967l107.011 109.011c-20.6777,23.319 -50.8264,42.1478 -90.5215,56.4863 -39.6574,14.3385 -81.5033,21.5078 -125.5,21.5078 -86.6727,0 -161.007,-24.9792 -223.002,-75.0132 -61.9953,-49.9962 -99.9925,-115.312 -113.991,-195.985 -12.6783,-73.9944 -1.50932,-135.009 33.5069,-183.005 35.0162,-47.9964 88.4839,-76.6735 160.516,-85.9935 15.9988,-17.3194 21.9983,-37.3179 17.9986,-59.9955 -2.67904,-16.678 -10.3388,-30.1864 -23.0171,-40.4875 -12.6783,-10.3388 -26.6772,-15.5083 -41.9968,-15.5083 -11.9991,0 -24.3378,3.9997 -37.0161,11.9991l-59.9955 -85.9935c25.998,-17.3572 57.0146,-25.998 93.0118,-25.998 36.6765,0 72.6738,10.6407 107.992,31.9976 35.3558,21.3191 56.3354,51.9961 63.0141,91.9931 6.64101,35.9973 -1.35839,66.6742 -23.9982,91.9931 78.6733,9.32005 143.31,34.337 193.985,75.0132l-67.9949 109.992z" horiz-adv-x="557" unicode="ç" />
		</font>
</defs>
</svg>
